返回APE音乐下载

天籁发烧榜-《靓声爱琴海3CD》[WAV/整轨][115/原抓]

分享者:网友投稿 发布时间:2010-08-20 下载: 热度:
音乐介绍

名称: 天籁发烧榜-靓声爱琴海
出版:黑龙江文化电子音像出版社
发行:黑龙江文化电子音像出版社
编号: CN-D17-07-575-00/A.J6
日期: 2010年6月  APE音乐下载
艺人: 凤凰传奇 央金兰泽 罗海英 甘雅丹 等
碟数:3CD套装
格式:WAV整轨



内容介绍

《天籁发烧榜:靓声爱琴海》精彩民曲尊贵之声,融传统于现代,予经典于流行。清幽天籁之音,细腻圆润,悠扬回荡在遥遥相应的由谷,唱出一曲曲只应天上有的世间美乐。打开这张发烧碟时,让人们感到美的色彩;当听到这张发烧碟的歌曲时,不同音色的人声让你耳目一新,陶醉在五彩韵色中。清新音色,磁性迷人歌喉,一声声,一首首,如同一个动人的传说,让人产生遐想和幻觉,久违了的记忆,久违了的情感,是韵色给予了呼唤与温暖,是韵色荡漾起对爱的渴望。我们踏着美妙的歌声,重拾往日的情怀,来安慰已皱褶疲惫的心,重新点燃起已尘封的激情。

DSIC A
01 爱琴海 3:48
02 等爱的玫瑰 4:48
03 心之寻 4:23
04 陪你一起看草原 3:30
05 拉萨酒吧 3:39
06 吉祥如意 5:15
07 多彩的哈达 4:56
08 曼陀铃 3:56
09 自由飞翔 4:31
10 我愿 3:48
11 阿妈啦 4:33
12 遇上你是我的缘 4:23
13 神奇的九寨 5:58
14 香巴拉并不遥远 4:22
15 西藏之恋 5:17
16 父亲的草原母亲的河 5:11
17 草原夜色美 4:32

DSIC B
01 月光落地的声音 3:39
02 坐上火车去拉萨 4:24
03 藏香 4:07
04 卓玛 5:30
05 天路 4:08
06 月光下的布拉达 4:34
07 高原红 5:33
08 家乡 4:13
09 天上西藏 5:06
10 雅鲁藏布 4:45
11 月亮之上 4:39
12 美丽的草原我的家 4:12
13 在那东山顶上 4:12
14 呼伦贝尔大草原 4:41
15 遇上你是我的缘 4:44
16 红雪莲 4:22
17 梦中的唐古拉 4:53

DSIC C
01 爱不在就放手 4:40
02 雪山阿挂 4:04
03 舞动高原 3:53
04 心中的恋人 4:44
05 彩云之南 4:01
06 天堂 6:03
07 成吉思汗的传说 5:26
08 蒙古人 5:50
09 达古拉 4:6
10 慈祥的母亲 4:50
11 鸿雁 3:53
12 嘎达梅林 4:29
13 香格里拉 5:51
14 梦中的卓玛 6:08
15 浪拉山情 4:41
16 弦子的传说 5:02

------------------------------------------------------------------------------------------------------------------

Exact Audio Copy V0.99 prebeta 5 from 4. May 2009

EAC 抓取日志文件从5. 八月 2010, 18:38

风语 / 天籁发烧榜-靓声爱琴海CDA

使用驱动器  :SAMSUNG DVD-ROM SD-616T   Adapter: 3  ID: 0

读取模式     : 保护
使用精确流   : 是
废除音频缓冲 : 否
使用 C2 指针 : 否

组合读/写偏移校正              : 0
读取 Lead-In 和 Lead-Out       : 否
用静音填充抓取中丢失偏移的采样 : 是
去除首尾静音块                 : 否
在 CRC 计算中使用了空样本      : 是
已用接口                       : 已安装外部 ASPI 接口

所用输出格式 : 内部 WAV 函数
样本格式     : 44.100 Hz;16 Bit;立体声


被抓轨 CD 的 TOC

     音轨 |   开始   |   长度   | 起始扇区 | 结尾扇区
    --------------------------------------------------
       1  |  0:00.00 |  3:48.56 |       0  |   17155  
       2  |  3:48.56 |  4:48.07 |   17156  |   38762  
       3  |  8:36.63 |  4:23.44 |   38763  |   58531  
       4  | 13:00.32 |  3:30.04 |   58532  |   74285  
       5  | 16:30.36 |  3:39.16 |   74286  |   90726  
       6  | 20:09.52 |  5:15.20 |   90727  |  114371  
       7  | 25:24.72 |  4:56.46 |  114372  |  136617  
       8  | 30:21.43 |  3:56.11 |  136618  |  154328  
       9  | 34:17.54 |  4:31.01 |  154329  |  174654  
      10  | 38:48.55 |  3:48.31 |  174655  |  191785  
      11  | 42:37.11 |  4:33.71 |  191786  |  212331  
      12  | 47:11.07 |  4:23.39 |  212332  |  232095  
      13  | 51:34.46 |  5:58.67 |  232096  |  259012  
      14  | 57:33.38 |  4:22.53 |  259013  |  278715  
      15  | 61:56.16 |  5:17.64 |  278716  |  302554  
      16  | 67:14.05 |  5:11.42 |  302555  |  325921  
      17  | 72:25.47 |  4:32.40 |  325922  |  346361  


范围状态及错误

已选择范围

     文件名 D:\My Documents\天籁发烧榜-靓声爱琴海3CD[WAV+CUE]\天籁发烧榜-靓声爱琴海CDA.wav


     峰值电平 100.0 %
     范围质量 99.4 %
     复制 CRC 59224C3C
     复制成功

没有错误发生

状态报告结尾

 


解压密码:风语原抓20100805

下载地址
   
                          ※WWW.23APE.COM※从此爱上APE※爱上无损音乐※·地址列表
其他说明

☉本站不储存音乐,只提供链接,所有资源来源于网络,由网友们分享交流。
☉本站所有广告训练有素,排列整齐,绝不弹窗!!!多谢理解,多谢支持!
☉假如你喜欢这个音乐,请购买正版。若有任何版权争议,请及时联系本站。


顶一下
(67)
94.4%
踩一下
(4)
5.6%
------分隔线----------------------------
→赞助商
→人气排行